<?xml version="1.0" standalone="no"?>
<!DOCTYPE svg PUBLIC "-//W3C//DTD SVG 1.1//EN" "http://www.w3.org/Graphics/SVG/1.1/DTD/svg11.dtd" >
<svg xmlns="http://www.w3.org/2000/svg">
<metadata>Generated by IcoMoon</metadata>
<defs>
<font id="icomoon" horiz-adv-x="1024">
<font-face units-per-em="1024" ascent="960" descent="-64" />
<missing-glyph horiz-adv-x="1024" />
<glyph unicode="&#x20;" horiz-adv-x="512" d="" />
<glyph unicode="&#xe900;" glyph-name="shield2" d="M948.358 797.094c-73.256 0-132.852 59.598-132.852 132.85v30.056h-607.014v-30.056c0-73.256-59.598-132.85-132.85-132.85h-30.056v-199.876c0-143.63 43.266-281.932 125.126-399.952 81.86-118.018 196.234-207.002 330.758-257.326l10.53-3.94 10.532 3.94c134.526 50.324 248.9 139.306 330.756 257.326 81.86 118.020 125.126 256.322 125.126 399.952v199.876h-30.056zM918.304 597.218h-0.002c0-131.328-39.562-257.78-114.41-365.69-72.698-104.816-173.454-184.586-291.894-231.24-118.438 46.656-219.196 126.424-291.894 231.24-74.846 107.908-114.406 234.362-114.406 365.69v142.1c82.38 12.94 147.63 78.19 160.57 160.57h491.466c12.938-82.38 78.188-147.63 160.57-160.57v-142.1zM646.116 677.626l-198.954-198.956-69.282 69.282-127.516-127.518 196.798-196.798 326.47 326.472-127.516 127.518zM335.376 420.43l42.506 42.506 69.282-69.282 198.954 198.956 42.506-42.506-241.46-241.46-111.788 111.786z" />
<glyph unicode="&#xe901;" glyph-name="delivery" d="M810.75 338.049c-75.321 0-136.606-61.283-136.606-136.606 0-75.321 61.283-136.606 136.606-136.606 75.321 0 136.606 61.283 136.606 136.606s-61.285 136.606-136.606 136.606zM810.75 131.476c-38.584 0-69.969 31.386-69.969 69.969s31.386 69.969 69.969 69.969 69.969-31.386 69.969-69.969-31.388-69.969-69.969-69.969zM258.773 338.049c-75.321 0-136.606-61.283-136.606-136.606 0-75.321 61.283-136.606 136.606-136.606s136.606 61.283 136.606 136.606-61.283 136.606-136.606 136.606zM258.773 131.476c-38.584 0-69.969 31.386-69.969 69.969s31.386 69.969 69.969 69.969 69.969-31.386 69.969-69.969-31.386-69.969-69.969-69.969zM639.715 831.164h-606.397c-18.402 0-33.318-14.916-33.318-33.32v-609.729c0-18.404 14.916-33.318 33.318-33.318h121.057v66.637h-87.739v543.092h539.76v-566.413h66.637v599.731c0.002 18.404-14.914 33.32-33.318 33.32zM1017.768 499.611l-123.289 172.146c-6.252 8.73-16.338 13.916-27.088 13.916h-227.677v-66.637h210.562l107.075-149.534v-234.739h-42.204v-66.637h75.521c18.404 0 33.318 14.904 33.33 33.318v278.765c0.002 6.964-2.186 13.75-6.23 19.404zM362.062 231.431h345.402v-66.637h-345.402v66.637zM639.715 512.415h350.966v-66.637h-350.966v66.637zM339.848 727.865c-103.499 0-187.694-84.195-187.694-187.694 0-103.487 84.195-187.684 187.694-187.684s187.694 84.195 187.694 187.684c0 103.487-84.195 187.694-187.694 187.694zM339.848 419.136c-66.747 0-121.057 54.297-121.057 121.047s54.309 121.057 121.057 121.057c66.747 0 121.057-54.309 121.057-121.057 0.002-66.749-54.307-121.047-121.057-121.047zM390.937 569.059h-18.88v24.434c0 18.404-14.916 33.318-33.318 33.318-18.404 0-33.318-14.916-33.318-33.318v-57.751c0-18.404 14.916-33.318 33.318-33.318h52.199c18.404 0 33.318 14.916 33.318 33.318-0.002 18.402-14.918 33.318-33.32 33.318z" />
<glyph unicode="&#xe902;" glyph-name="refund" d="M1002.688 469.328c-11.812 0-21.376-9.546-21.376-21.328 0-63.376-12.376-124.844-36.844-182.688-23.656-55.876-57.468-106.062-100.594-149.188s-93.312-76.938-149.188-100.594c-57.844-24.468-119.312-36.844-182.688-36.844s-124.844 12.376-182.672 36.844c-55.876 23.656-106.078 57.468-149.204 100.594-43.11 43.124-76.954 93.312-100.594 149.188-24.454 57.844-36.86 119.312-36.86 182.688s12.406 124.844 36.86 182.672c23.64 55.89 57.484 106.078 100.594 149.204 43.124 43.11 93.328 76.954 149.204 100.594 57.828 24.468 119.296 36.86 182.672 36.86s124.844-12.39 182.688-36.86c51.688-21.876 98.562-52.516 139.438-91.14h-78.312c-11.75 0-21.312-9.546-21.312-21.328s9.562-21.328 21.312-21.328h128c11.812 0 21.376 9.546 21.376 21.328v127.998c0 11.782-9.562 21.328-21.376 21.328-11.75 0-21.312-9.546-21.312-21.328v-74.796c-91.624 86.078-214.876 138.796-350.5 138.796-282.766 0-512-229.234-512-512 0-282.75 229.234-512 512-512 282.75 0 512 229.25 512 512 0 11.782-9.562 21.328-21.312 21.328zM213.328 661.328v-341.328h597.36v341.328h-597.36zM768 490.672v-127.984h-512v255.984h512v-128zM511.624 598.672c-58.922 0-106.672-47.766-106.672-106.672s47.752-106.688 106.672-106.688c58.906 0 106.656 47.782 106.656 106.688s-47.75 106.672-106.656 106.672zM511.624 428c-35.296 0-64 28.718-64 64 0 35.296 28.704 64 64 64 35.282 0 64-28.704 64-64 0-35.282-28.718-64-64-64zM789.312 298.688h-554.64c-11.782 0-21.344-9.562-21.344-21.376 0-11.75 9.562-21.312 21.344-21.312h554.64c11.812 0 21.376 9.562 21.376 21.312 0 11.812-9.564 21.376-21.376 21.376zM789.312 234.688h-554.64c-11.782 0-21.344-9.562-21.344-21.376 0-11.75 9.562-21.312 21.344-21.312h554.64c11.812 0 21.376 9.562 21.376 21.312 0 11.812-9.564 21.376-21.376 21.376z" />
<glyph unicode="&#xe903;" glyph-name="plane" d="M992.855 253.329l-395.529 395.487v175.387c0 27.688-6.143 55.589-18.26 81.615l-9.001 17.065c-10.623 22.91-32.851 37.117-58.065 37.117s-47.442-14.207-57.595-36.135l-9.941-18.984c-11.647-25.086-17.791-52.946-17.791-80.675v-175.387l-395.401-395.405c-20.136-20.136-31.229-46.886-31.229-75.386v-50.002c0-7.807 4.266-14.975 11.093-18.686 6.825-3.754 15.189-3.498 21.758 0.768l402.056 257.642c3.968-64.549 9.343-118.432 15.913-184.007l6.783-67.194-149.363-98.68c-6.015-4.010-9.599-10.665-9.599-17.833v-42.662c0-6.441 2.944-12.585 7.977-16.639 5.078-4.096 11.689-5.632 17.96-4.224l187.376 41.682 187.376-41.682c1.536-0.342 3.072-0.512 4.608-0.512 4.822 0 9.513 1.622 13.353 4.694 5.034 4.096 7.977 10.239 7.977 16.681v42.662c0 7.167-3.584 13.865-9.599 17.791l-149.363 98.552 6.783 67.408c6.569 65.488 11.945 119.328 15.913 183.879l402.056-257.556c6.613-4.266 14.933-4.48 21.716-0.768 6.869 3.712 11.135 10.879 11.135 18.686v50.002c0.004 28.498-11.045 55.247-31.097 75.3z" />
<glyph unicode="&#xe904;" glyph-name="ship-car" d="M961.82 485.976h-291.031c-12.813 0-23.197 10.384-23.197 23.197v190.006c-0.045 38.411-31.171 69.545-69.591 69.591h-578.002v-523.607h54.567c11.589 66.637 69.428 115.287 137.070 115.287s125.481-48.65 137.070-115.287h337.28c11.589 66.646 69.428 115.296 137.070 115.296s125.481-48.65 137.061-115.296h83.88v151.269c-0.036 18.893-7.711 36.961-21.285 50.1zM860.361 627.423c-12.867 19.436-34.641 31.116-57.965 31.080h-108.4v-126.133h228.761zM895.818 221.295c0-51.233-41.528-92.76-92.76-92.76s-92.76 41.528-92.76 92.76c0 51.233 41.528 92.76 92.76 92.76s92.76-41.528 92.76-92.76zM283.22 236.147c8.21-50.571-26.133-98.224-76.704-106.425-50.58-8.21-98.224 26.133-106.434 76.704s26.133 98.224 76.713 106.434c50.571 8.2 98.215-26.142 106.425-76.713z" />
<glyph unicode="&#xe905;" glyph-name="sticker" d="M1023.683 505.438v0.008c-1.672 15.953-9.938 30.656-22.672 40.399l-58.281 45.375 21.906 72.281c4.672 15.422 2.734 32.274-5.32 46.242-8.063 13.961-21.688 24.063-37.383 27.734l-73.321 17.117-9.359 74.703c-2.008 16-10.633 30.609-23.664 40.063-13.047 9.492-29.617 13.188-45.438 10.141l-73.946-14.18-38.945 64.446c-15.5 25.649-48.047 35.336-75.688 22.555-1.945-0.898-3.82-1.977-5.453-3.133l-64.18-44.703-61.789 43.039c-13.227 9.203-29.844 12.555-45.61 9.211s-29.594-13.188-37.93-26.984l-38.93-64.438-73.953 14.188c-15.836 3.031-32.391-0.664-45.414-10.133-13.047-9.477-21.672-24.086-23.672-40.070l-9.359-74.711-77.547-18.102-3.641-1.188-1.344-0.586c-28.172-12.32-42.266-42.274-33.5-71.211l21.899-72.281-60.781-47.281-3.523-3.063-0.992-1.086c-20.399-22.281-21.195-55.985-1.898-78.516l47.586-56.906-38.57-69.992-1.539-3.5-0.445-1.305c-9.617-28.742 3.484-59.977 30.469-72.641l68.156-31.984-6.383-75.016c-1.367-16.070 4.039-32.156 14.82-44.125 10.781-11.977 26.211-19.031 42.336-19.359l75.274-1.5 24.688-71.117c5.281-15.234 16.758-27.734 31.477-34.281 14.719-6.555 31.68-6.727 46.555-0.469l69.383 29.242 54.461-58.117 2.852-2.539 1.102-0.82c10.758-7.945 23.328-11.836 35.781-11.836 15.758 0 31.32 6.234 42.703 18.383l51.485 54.93 69.391-29.25c14.844-6.25 31.797-6.078 46.516 0.469 14.734 6.555 26.211 19.055 31.492 34.281l24.695 71.125 79.625 1.586 3.781 0.414 1.359 0.273c29.688 6.055 50.18 33.016 47.656 62.703l-6.375 75.024 68.164 31.984c14.586 6.844 25.813 19.563 30.797 34.899 4.977 15.328 3.375 32.219-4.406 46.336l-36.484 66.203 47.594 56.906c10.398 12.148 15.406 28.227 13.734 44.164zM515.127 191.452c-140.602 0-254.993 114.391-254.993 254.993 0 140.61 114.391 254.993 254.993 254.993 140.61 0 255.001-114.383 255.001-254.993 0-140.602-114.399-254.993-255.001-254.993zM515.127 641.399c-107.493 0-194.954-87.453-194.954-194.954 0-107.493 87.461-194.946 194.954-194.946 107.5 0 194.954 87.453 194.954 194.946 0 107.5-87.453 194.954-194.954 194.954zM630.877 483.164l-139.672-139.665c-5.859-5.867-13.539-8.797-21.227-8.797-7.68 0-15.367 2.93-21.227 8.797l-53.367 53.367c-11.727 11.727-11.727 30.734 0 42.461 11.719 11.719 30.727 11.719 42.453 0l32.149-32.149 118.438 118.438c11.719 11.727 30.734 11.727 42.453 0 11.727-11.719 11.727-30.727 0-42.453z" />
<glyph unicode="&#xe906;" glyph-name="security-on" d="M933.769 800.010c-174.73 0-308.591 49.921-421.785 159.99-113.182-110.069-247.037-159.99-421.752-159.99 0-286.641-59.312-697.252 421.75-864.010 481.096 166.755 421.788 577.366 421.788 864.010zM477.044 295.601l-140.515 140.535 62.914 62.911 77.601-77.619 147.495 147.498 62.911-62.911-210.405-210.414z" />
<glyph unicode="&#xe907;" glyph-name="shop" d="M1022.134 715.556l-73.142 219.428c-4.976 14.942-18.958 25.020-34.706 25.016h-804.572c-15.748 0.004-29.73-10.074-34.706-25.016l-73.144-219.428c-1.127-3.416-1.757-6.975-1.864-10.569 0-0.366 0-0.621 0-0.988v-36.572c0.133-57.3 27.229-111.197 73.142-145.481 0-0.294 0-0.512 0-0.804v-475.429c0-60.594 49.121-109.714 109.714-109.714h658.285c60.594 0 109.714 49.121 109.714 109.714v475.429c0 0.294 0 0.512 0 0.804 45.913 34.284 73.011 88.181 73.142 145.481v36.572c0 0.366 0 0.621 0 0.988-0.107 3.596-0.735 7.155-1.864 10.569zM767.999 886.858h119.918l48.786-146.286h-168.705v146.286zM548.571 886.858h146.286v-146.286h-146.286v146.286zM329.143 886.858h146.286v-146.286h-146.286v146.286zM136.082 886.858h119.918v-146.286h-168.705l48.786 146.286zM585.143 9.144h-146.286v292.571h146.286v-292.571zM877.714 45.714c0-20.199-16.374-36.572-36.572-36.572h-182.856v329.143c0 20.199-16.374 36.572-36.572 36.572h-219.428c-20.199 0-36.572-16.374-36.572-36.572v-329.143h-182.856c-20.199 0-36.572 16.374-36.572 36.572v442.515c51.324-10.536 104.693 1.712 146.286 33.572 65.284-47.949 154.144-47.949 219.428 0 65.284-47.949 154.144-47.949 219.428 0 41.593-31.862 94.963-44.109 146.286-33.572v-442.515zM841.142 557.715c-31.626 0.019-61.659 13.892-82.176 37.961-13.29 15.208-36.394 16.764-51.602 3.474-1.234-1.078-2.396-2.239-3.474-3.474-40.665-45.386-110.419-49.211-155.805-8.548-3.002 2.691-5.856 5.544-8.548 8.548-14.312 15.208-38.244 15.936-53.454 1.622-0.557-0.525-1.099-1.065-1.622-1.622-40.663-45.386-110.419-49.211-155.805-8.548-3.004 2.691-5.856 5.544-8.548 8.548-14.312 15.208-38.246 15.936-53.454 1.622-0.557-0.525-1.099-1.065-1.622-1.622-20.518-24.069-50.548-37.941-82.176-37.961-60.594 0-109.714 49.121-109.714 109.714h877.714c0-60.594-49.121-109.714-109.714-109.714z" />
<glyph unicode="&#xe908;" glyph-name="menu-vertical" d="M963.429 224.223h-903.798c-15.519 0-28.1-12.589-28.1-28.1 0-15.528 12.581-28.1 28.1-28.1h903.798c15.519 0 28.1 12.572 28.1 28.1 0 15.51-12.581 28.1-28.1 28.1zM963.429 488.372h-903.798c-15.519 0-28.1-12.598-28.1-28.108 0-15.519 12.581-28.1 28.1-28.1h903.798c15.519 0 28.1 12.581 28.1 28.1 0 15.51-12.581 28.108-28.1 28.108zM963.429 752.512h-903.798c-15.519 0-28.1-12.589-28.1-28.1 0-15.519 12.581-28.1 28.1-28.1h903.798c15.519 0 28.1 12.581 28.1 28.1 0 15.51-12.581 28.1-28.1 28.1z" />
<glyph unicode="&#xe909;" glyph-name="menu" d="M31.999 640h959.999c17.665 0 31.999 14.337 31.999 31.999 0 17.665-14.337 31.999-31.999 31.999h-959.999c-17.665 0-31.999-14.337-31.999-31.999s14.337-31.999 31.999-31.999zM991.998 479.999h-959.999c-17.665 0-31.999-14.337-31.999-31.999s14.337-31.999 31.999-31.999h959.999c17.665 0 31.999 14.337 31.999 31.999s-14.334 31.999-31.999 31.999zM991.998 256h-639.999c-17.665 0-31.999-14.337-31.999-31.999 0-17.665 14.337-31.999 31.999-31.999h639.999c17.665 0 31.999 14.337 31.999 31.999 0.003 17.665-14.334 31.999-31.999 31.999z" />
<glyph unicode="&#xe90a;" glyph-name="heart" d="M512-7.031c-14.578 0-28.633 5.281-39.586 14.875-41.367 36.172-81.25 70.164-116.438 100.148l-0.18 0.156c-103.164 87.914-192.25 163.836-254.234 238.625-69.289 83.609-101.563 162.883-101.563 249.484 0 84.141 28.852 161.766 81.234 218.586 53.008 57.492 125.742 89.156 204.828 89.156 59.109 0 113.242-18.688 160.891-55.539 24.047-18.602 45.844-41.367 65.047-67.922 19.211 26.555 41 49.32 65.055 67.922 47.648 36.852 101.781 55.539 160.891 55.539 79.078 0 151.82-31.664 204.828-89.156 52.383-56.82 81.227-134.445 81.227-218.586 0-86.602-32.266-165.875-101.555-249.477-61.984-74.797-151.063-150.711-254.211-238.617-35.25-30.031-75.195-64.078-116.656-100.336-10.945-9.578-25.008-14.859-39.578-14.859zM286.063 844.016c-62.133 0-119.211-24.797-160.734-69.828-42.141-45.711-65.352-108.898-65.352-177.93 0-72.836 27.070-137.977 87.766-211.211 58.664-70.789 145.922-145.148 246.953-231.25l0.188-0.156c35.32-30.102 75.359-64.227 117.031-100.664 41.922 36.508 82.023 70.688 117.414 100.836 101.023 86.102 188.273 160.445 246.938 231.234 60.688 73.234 87.758 138.375 87.758 211.211 0 69.031-23.211 132.219-65.352 177.93-41.516 45.031-98.602 69.828-160.727 69.828-45.516 0-87.305-14.469-124.203-43-32.883-25.438-55.789-57.594-69.219-80.094-6.906-11.57-19.063-18.477-32.523-18.477s-25.617 6.906-32.523 18.477c-13.422 22.5-36.328 54.656-69.219 80.094-36.898 28.531-78.688 43-124.195 43z" />
<glyph unicode="&#xe90b;" glyph-name="magnifying-glass" d="M1024-18.75l-347.047 347.047c56.68 66.931 91.048 153.328 91.048 247.703 0 211.751-172.252 384-384 384s-384-172.25-384-384 172.25-384 384-384c94.375 0 180.772 34.367 247.703 91.048l347.047-347.047s45.25 45.25 45.25 45.25zM384 256c-176.438 0-320 143.562-320 320s143.562 320 320 320 320-143.562 320-320-143.562-320-320-320z" />
<glyph unicode="&#xe90c;" glyph-name="user" d="M512 383.222c-307.674 0-477.12-145.552-477.12-409.85 0-20.642 16.73-37.372 37.372-37.372h879.494c20.642 0 37.372 16.73 37.372 37.372 0.002 264.284-169.444 409.85-477.118 409.85zM110.984 10.744c14.7 197.612 149.426 297.732 401.016 297.732s386.318-100.12 401.030-297.732h-802.046zM512 960c-141.33 0-247.902-108.716-247.902-252.874 0-148.38 111.208-269.080 247.902-269.080s247.902 120.7 247.902 269.068c0 144.17-106.572 252.886-247.902 252.886zM512 512.778c-95.486 0-173.158 87.178-173.158 194.336 0 103.222 72.826 178.142 173.158 178.142 98.726 0 173.158-76.576 173.158-178.142 0-107.158-77.672-194.336-173.158-194.336z" />
<glyph unicode="&#xe90d;" glyph-name="circular" d="M109.715-63.998c-6.249 0-12.501 1.608-18.142 4.822-11.394 6.5-18.43 18.608-18.43 31.752v950.906c0 13.145 7.036 25.252 18.43 31.752 11.499 6.465 25.465 6.322 36.749-0.25l804.571-475.455c11.143-6.607 17.964-18.572 17.964-31.502s-6.82-24.894-17.964-31.502l-804.571-475.453c-5.751-3.359-12.18-5.072-18.608-5.070zM146.286 859.409v-822.762l696.109 411.38z" />
<glyph unicode="&#xe90e;" glyph-name="mail" d="M987.428 813.714h-950.856c-20.199 0-36.572-16.374-36.572-36.57v-658.285c0-20.199 16.374-36.572 36.572-36.572h950.856c20.199 0 36.572 16.374 36.572 36.572v658.285c0 20.196-16.374 36.57-36.572 36.57zM927.451 740.572l-415.453-319.562-415.45 319.562h830.903zM950.856 155.428h-877.714v510.868l416.586-320.438c13.136-10.086 31.408-10.086 44.544 0l416.584 320.438v-510.868z" />
<glyph unicode="&#xe90f;" glyph-name="lock" d="M877.714 594.285h-36.572v36.572c-0.201 181.697-147.446 328.941-329.143 329.143-181.697-0.201-328.941-147.446-329.143-329.143v-36.572h-36.57c-20.199 0-36.572-16.374-36.572-36.572v-585.141c0-20.199 16.374-36.572 36.572-36.572h731.427c20.199 0 36.572 16.374 36.572 36.572v585.143c0 20.196-16.374 36.57-36.572 36.57zM256.001 630.857c0 141.386 114.615 256.001 256.001 256.001s255.998-114.615 255.998-256.001v-36.572h-511.999v36.572zM841.142 9.144h-658.285v511.999h658.285v-511.999zM615.447 338.334c-15.452 43.869-56.938 73.183-103.448 73.095-60.452 0.114-109.551-48.799-109.665-109.251-0.088-46.511 29.226-87.996 73.095-103.448v-79.873c0-20.199 16.374-36.572 36.572-36.572s36.57 16.376 36.57 36.574v79.871c57.019 20.083 86.961 82.588 66.876 139.605zM511.999 265.143c-20.199 0-36.572 16.374-36.572 36.572s16.374 36.572 36.572 36.572 36.572-16.374 36.572-36.572-16.374-36.572-36.572-36.572z" />
<glyph unicode="&#xe910;" glyph-name="user1" d="M881.93 802.421c-96.647 100.88-230.371 157.812-370.078 157.555-282.331 0.356-511.497-228.231-511.852-510.565-0.176-139.604 56.75-273.206 157.555-369.785 0.293-0.291 0.403-0.73 0.694-0.988 2.96-2.851 6.178-5.265 9.177-8.007 8.226-7.311 16.452-14.879 25.117-21.936 4.642-3.657 9.468-7.311 14.222-10.674 8.189-6.105 16.379-12.21 24.933-17.842 5.814-3.657 11.81-7.311 17.767-10.968 7.896-4.753 15.758-9.541 23.911-13.892 6.911-3.657 13.965-6.799 20.985-10.126 7.677-3.657 15.246-7.311 23.105-10.602s15.758-5.85 23.726-8.701 14.843-5.484 22.484-7.823c8.629-2.596 17.476-4.606 26.25-6.763 7.311-1.791 14.404-3.839 21.936-5.302 10.090-2.011 20.327-3.29 30.564-4.681 6.326-0.878 12.504-2.121 18.9-2.742 16.745-1.645 33.634-2.56 50.67-2.56s33.927 0.915 50.67 2.56c6.399 0.621 12.577 1.864 18.9 2.742 10.237 1.39 20.473 2.669 30.564 4.681 7.311 1.463 14.624 3.657 21.936 5.302 8.774 2.157 17.621 4.169 26.25 6.763 7.641 2.339 15.025 5.19 22.484 7.823s15.94 5.484 23.726 8.701 15.428 6.983 23.105 10.602c7.020 3.327 14.076 6.471 20.985 10.126 8.153 4.351 16.013 9.141 23.911 13.892 5.959 3.657 11.955 6.983 17.767 10.968 8.556 5.63 16.745 11.735 24.933 17.842 4.753 3.657 9.578 6.947 14.222 10.674 8.665 6.947 16.891 14.331 25.117 21.936 2.997 2.742 6.214 5.154 9.177 8.007 0.291 0.255 0.403 0.694 0.694 0.988 203.877 195.317 210.811 518.923 15.494 722.794zM799.76 117.905c-6.654-5.85-13.528-11.407-20.473-16.782-4.094-3.145-8.189-6.251-12.394-9.25-6.617-4.79-13.343-9.323-20.181-13.673-4.972-3.181-10.053-6.251-15.173-9.25-6.435-3.657-12.979-7.311-19.596-10.968-5.85-2.997-11.81-5.814-17.803-8.592s-12.613-5.739-19.084-8.335c-6.471-2.596-13.343-5.045-20.108-7.311-6.178-2.121-12.356-4.314-18.609-6.178-7.311-2.194-14.952-3.984-22.52-5.814-5.923-1.388-11.771-2.96-17.767-4.132-8.665-1.682-17.512-2.851-26.396-4.057-5.045-0.658-10.053-1.572-15.136-2.084-14.040-1.352-28.261-2.157-42.629-2.157s-28.589 0.803-42.629 2.157c-5.081 0.512-10.090 1.427-15.136 2.084-8.884 1.206-17.731 2.376-26.396 4.057-5.996 1.17-11.846 2.742-17.767 4.132-7.568 1.827-15.1 3.657-22.52 5.814-6.251 1.864-12.431 4.057-18.609 6.178-6.763 2.339-13.528 4.717-20.108 7.311-6.581 2.596-12.795 5.447-19.084 8.335s-11.955 5.593-17.803 8.592c-6.617 3.436-13.161 7.056-19.596 10.968-5.118 2.997-10.201 6.069-15.173 9.25-6.836 4.351-13.564 8.884-20.181 13.673-4.205 2.997-8.299 6.105-12.394 9.25-6.947 5.375-13.819 10.968-20.473 16.782-1.609 1.206-3.072 2.742-4.642 4.132 1.634 124.367 81.53 234.182 199.359 274.013 58.916-28.026 127.319-28.026 186.234 0 117.827-39.831 197.723-149.644 199.359-274.013-1.536-1.39-2.999-2.781-4.569-4.132zM384.366 666.849c39.585 70.4 128.743 95.379 199.143 55.794s95.379-128.743 55.794-199.143c-13.134-23.358-32.434-42.659-55.794-55.794-0.182 0-0.403 0-0.621-0.218-9.695-5.396-19.941-9.736-30.564-12.943-1.9-0.548-3.657-1.279-5.666-1.754-3.657-0.951-7.495-1.609-11.261-2.266-7.091-1.24-14.265-1.96-21.46-2.157h-4.169c-7.195 0.197-14.37 0.917-21.46 2.157-3.657 0.658-7.532 1.315-11.259 2.266-1.939 0.476-3.657 1.206-5.666 1.754-10.623 3.207-20.869 7.545-30.564 12.943l-0.658 0.218c-70.4 39.585-95.379 128.743-55.794 199.143zM869.185 194.532v0c-23.461 109.428-95.519 202.198-195.739 252.003 81.927 89.244 75.993 228.006-13.251 309.933s-228.006 75.993-309.933-13.251c-77.019-83.9-77.019-212.784 0-296.682-100.221-49.807-172.278-142.575-195.739-252.003-140.191 197.47-93.758 471.198 103.712 611.389s471.198 93.758 611.389-103.712c52.699-74.232 80.988-163.026 80.943-254.063 0-90.958-28.456-179.637-81.382-253.614z" />
<glyph unicode="&#xe911;" glyph-name="d-design" d="M810.667 606.517v140.149c-0.287 16.528-9.67 30.8-23.346 38.050l-0.238 0.115-256 128c-5.559 2.841-12.127 4.505-19.083 4.505s-13.523-1.665-19.325-4.617l0.242 0.112-256-128c-14.081-7.179-23.562-21.562-23.584-38.162v-140.248c-133.781-55.168-213.333-145.525-213.333-243.755 0-156.747 197.003-281.685 457.6-297.056l-54.187-57.749 62.229-58.389 120.117 128c7.156 7.612 11.553 17.89 11.553 29.195 0 11.785-4.778 22.454-12.502 30.175l-128 128-60.352-60.352 52.736-52.725c-202.795 15.701-363.861 105.899-363.861 210.901 0 55.381 47.104 109.728 128 150.197v-64.864c0-0.001 0-0.003 0-0.004 0-16.608 9.489-31 23.342-38.050l0.242-0.112 256-128c5.572-2.781 12.137-4.409 19.083-4.409s13.511 1.628 19.336 4.523l-0.253-0.114 256 128c14.095 7.161 23.584 21.553 23.584 38.161 0 0.001 0 0.003 0 0.004v0 64.907c80.832-40.533 128-95.157 128-150.24 0-69.611-75.008-137.867-195.765-178.133l26.987-80.96c159.179 53.067 254.112 149.909 254.112 259.093 0 99.349-77.749 188.043-213.333 243.851zM512 826.965l160.597-80.299-160.597-80.299-160.597 80.299zM298.667 677.632l170.667-85.333v-203.264l-170.667 85.333zM725.333 474.368l-170.667-85.333v203.264l170.667 85.333z" />
<glyph unicode="&#xe912;" glyph-name="play-video" d="M938.664 771.18h-312.32l84.484 72.383c4.898 3.883 7.281 10.133 6.211 16.289-1.070 6.164-5.422 11.242-11.344 13.25-5.922 2-12.461 0.609-17.055-3.633l-119.469-102.398c-0.172-0.141-0.219-0.344-0.375-0.477-1.211-1.195-2.242-2.555-3.055-4.047-0.367-0.492-0.711-1.008-1.023-1.539-2.023-4.375-2.023-9.414 0-13.789 0.312-0.531 0.656-1.039 1.023-1.531 0.812-1.492 1.844-2.859 3.055-4.047 0.156-0.141 0.203-0.344 0.375-0.477l119.469-102.406c4.594-4.242 11.133-5.633 17.055-3.625 5.922 2 10.273 7.086 11.344 13.242s-1.312 12.406-6.211 16.297l-84.484 72.375h312.32c28.281 0 51.203-22.922 51.203-51.195v-580.273c0-28.273-22.922-51.195-51.203-51.195h-853.328c-28.281 0-51.203 22.922-51.203 51.195v580.273c0 28.273 22.922 51.195 51.203 51.195h221.867c9.422 0 17.062 7.641 17.062 17.070 0 9.422-7.641 17.062-17.062 17.062h-221.867c-47.109-0.055-85.281-38.227-85.336-85.328v-580.273c0.055-47.102 38.227-85.273 85.336-85.328h853.328c47.109 0.055 85.281 38.227 85.336 85.328v580.273c-0.055 47.102-38.227 85.273-85.336 85.328zM380.977 173.852c7.391-0.008 14.633 2.039 20.93 5.922l296.117 182.523c11.641 7.117 18.742 19.773 18.742 33.414 0 13.648-7.102 26.305-18.742 33.422l-296.117 182.492c-12.305 7.57-27.742 7.906-40.367 0.867-12.531-6.836-20.289-20.008-20.203-34.281v-364.992c-0.070-14.258 7.687-27.414 20.203-34.25 5.937-3.336 12.633-5.094 19.437-5.117zM375.469 578.211c-0.023 1.883 1.016 3.609 2.695 4.469 0.867 0.492 1.852 0.758 2.852 0.766 1.055 0 2.094-0.312 2.984-0.883l296.172-182.492c1.508-0.937 2.43-2.586 2.43-4.359 0-1.766-0.922-3.414-2.43-4.352l-296.172-182.508c-1.773-1.133-4.031-1.172-5.836-0.102-1.68 0.859-2.719 2.586-2.695 4.469z" />
<glyph unicode="&#xe913;" glyph-name="ruler" d="M0 688v-480h1024v480h-1024zM944 288h-864v320h76v-96h80v96h80v-176h80v176h76v-96h80v96h76v-176h80v176h80v-96h80v96h76v-320z" />
<glyph unicode="&#xe914;" glyph-name="large-paper-bag-empty" d="M715.306 782.418c0 4.979 1.66 8.298 1.66 13.277v82.982c0 44.81-36.512 81.323-79.663 81.323h-248.947c-44.81 0-79.663-36.512-79.663-79.663v-82.982c0-4.979 0-9.958 1.66-13.277h-248.947v-768.415c0-44.81 36.512-79.663 79.663-79.663h743.52c44.81 0 79.663 36.512 79.663 79.663v766.755h-248.947zM373.42 797.355v82.982c0 8.298 6.639 13.277 13.277 13.277h248.947c8.298 0 13.277-6.639 13.277-13.277v-82.982c0-8.298-6.639-13.277-13.277-13.277h-248.947c-6.639-1.66-13.277 4.979-13.277 13.277zM897.867 15.663c0-8.298-6.639-13.277-13.277-13.277h-743.52c-8.298 0-13.277 6.639-13.277 13.277v700.37h773.394v-700.37zM392.265 540.831l257.004-257.004-17.603-17.603-257.004 257.004 17.603 17.603zM374.948 283.281l257.004 257.004 17.603-17.603-257.004-257.004-17.603 17.603z" />
<glyph unicode="&#xe915;" glyph-name="login1" d="M928.001 960h-704c-17.688 0-32-14.312-32-32v-95.999h64.001v63.999h640v-896h-640v64.001h-64.001v-95.999c0-17.688 14.312-32 32-32h704c17.688 0 32 14.312 32 32v959.999c0 17.688-14.314 32-32 32zM380.125 278.625l45.25-45.25 214.625 214.625-214.625 214.625-45.25-45.25 137.375-137.375h-453.499v-64.001h453.501z" />
<glyph unicode="&#xe916;" glyph-name="user2" d="M598.58 449h-173.16c-170.28 0-308.84-138.54-308.84-308.84v-204.16h790.84v204.16c0 170.3-138.56 308.84-308.84 308.84zM176.58-4v144.16c0 137.22 111.64 248.84 248.84 248.84h173.16c137.2 0 248.84-111.62 248.84-248.84v-144.16h-670.84zM512 960c-131.68 0-238.82-107.14-238.82-238.82s107.14-238.82 238.82-238.82 238.82 107.14 238.82 238.82-107.14 238.82-238.82 238.82zM512 542.36c-98.6 0-178.82 80.22-178.82 178.82s80.22 178.82 178.82 178.82 178.82-80.22 178.82-178.82c0-98.6-80.22-178.82-178.82-178.82z" />
<glyph unicode="&#xe917;" glyph-name="levels" d="M172.72 777.84v134.58h-60v-134.58h-112.72v-234.56h112.72v-559.7h60v559.7h112.7v234.56h-112.7zM225.42 603.28h-165.42v114.56h165.42v-114.56zM542 498.14v414.28h-60v-414.28h-112.72v-234.58h112.72v-279.98h60v279.98h112.72v234.58h-112.72zM594.72 323.56h-165.44v114.58h165.44v-114.58zM911.28 777.84v134.58h-60v-134.58h-112.7v-234.56h112.7v-559.7h60v559.7h112.72v234.56h-112.72zM964 603.28h-165.42v114.56h165.42v-114.56z" />
<glyph unicode="&#xe918;" glyph-name="content-writing" d="M1024-24c0-22.094-17.906-40-40-40h-472c-22.094 0-40 17.906-40 40s17.906 40 40 40h472c22.094 0 40-17.906 40-40zM984 173.336h-314.664c-22.094 0-40-17.914-40-40 0-22.094 17.906-40 40-40h314.664c22.094 0 40 17.906 40 40 0 22.086-17.906 40-40 40zM984 330.664h-157.336c-22.094 0-40-17.906-40-40s17.906-40 40-40h157.336c22.094 0 40 17.906 40 40s-17.906 40-40 40zM1012.281 655.719l-708-708c-7.5-7.508-17.672-11.719-28.281-11.719h-236c-22.094 0-40 17.906-40 40v236c0 10.609 4.211 20.781 11.719 28.281l708 708c15.617 15.625 40.945 15.625 56.562 0l236-236c15.625-15.617 15.625-40.945 0-56.562zM927.429 684l-179.43 179.43-668-668v-179.43h179.43z" />
<glyph unicode="&#xe919;" glyph-name="chat" d="M914.286 959.996h-804.572c-60.594 0-109.714-49.121-109.714-109.714v-585.143c0-60.594 49.121-109.714 109.714-109.714h129.829l-19.894-178.834c-2.218-20.076 12.259-38.147 32.336-40.365 10.367-1.144 20.73 2.192 28.483 9.169l233.398 210.030h400.42c60.594 0 109.714 49.121 109.714 109.714v585.143c0 60.594-49.121 109.714-109.714 109.714zM950.856 265.138c0-20.199-16.374-36.572-36.572-36.572h-414.463c-9.036-0.002-17.751-3.351-24.467-9.399l-172.397-155.173 13.787 123.941c2.241 20.072-12.212 38.162-32.286 40.406-1.35 0.15-2.706 0.227-4.065 0.225h-170.678c-20.199 0-36.572 16.374-36.572 36.572v585.143c0 20.199 16.374 36.572 36.572 36.572h804.572c20.199 0 36.572-16.374 36.572-36.572v-585.143z" />
<glyph unicode="&#xe91a;" glyph-name="left-arrow" d="M298.622 448.018l473.994 473.992c8.682 8.682 8.682 22.797 0 31.479s-22.797 8.682-31.479 0l-489.753-489.755c-8.682-8.682-8.682-22.797 0-31.479l489.755-489.755c4.364-4.318 10.062-6.501 15.761-6.501s11.397 2.181 15.717 6.545c8.682 8.682 8.682 22.797 0 31.479l-473.996 473.996z" />
<glyph unicode="&#xe91b;" d="M283.092 953.474c-8.84 8.54-22.929 8.293-31.469-0.547-8.329-8.625-8.329-22.297 0-30.92l473.85-473.894-473.894-473.85c-8.84-8.54-9.084-22.627-0.547-31.469 8.54-8.84 22.627-9.084 31.469-0.547 0.186 0.179 0.367 0.361 0.547 0.547l489.607 489.607c8.688 8.69 8.688 22.777 0 31.469l-489.563 489.605z" />
<glyph unicode="&#xe91c;" glyph-name="gift-voucher" d="M982.486 157.405h-940.973c-7.642 0-13.838 6.195-13.838 13.838v0 141.146c0 0.001 0 0.002 0 0.003 0 6.663 4.709 12.226 10.98 13.542l0.090 0.016c57.314 11.944 99.757 62.040 99.757 122.050s-42.443 110.106-98.948 121.908l-0.809 0.141c-6.361 1.333-11.070 6.896-11.070 13.558 0 0.001 0 0.002 0 0.003v0 141.146c0 7.642 6.195 13.838 13.838 13.838v0h940.973c7.642 0 13.838-6.195 13.838-13.838v0-141.146c0-0.001 0-0.002 0-0.003 0-6.663-4.709-12.226-10.98-13.542l-0.090-0.016c-57.314-11.944-99.757-62.040-99.757-122.050s42.443-110.106 98.948-121.908l0.809-0.141c6.361-1.333 11.070-6.896 11.070-13.558 0-0.001 0-0.002 0-0.003v0-141.146c0-7.642-6.195-13.838-13.838-13.838v0zM55.351 185.081h913.297v116.445c-64.464 18.658-110.8 77.154-110.8 146.474s46.336 127.816 109.725 146.206l1.075 0.267v116.445h-913.297v-116.445c64.464-18.658 110.8-77.154 110.8-146.474s-46.336-127.816-109.725-146.206l-1.075-0.267zM719.568 660.605c-7.642 0-13.838 6.195-13.838 13.838v0 50.314c0 7.642 6.195 13.838 13.838 13.838s13.838-6.195 13.838-13.838v0-50.314c0-7.642-6.195-13.838-13.838-13.838v0zM719.568 534.805c-7.642 0-13.838 6.195-13.838 13.838v0 50.314c0 7.642 6.195 13.838 13.838 13.838s13.838-6.195 13.838-13.838v0-50.314c0-7.642-6.195-13.838-13.838-13.838v0zM719.568 409.005c-7.642 0-13.838 6.195-13.838 13.838v0 50.314c0 7.642 6.195 13.838 13.838 13.838s13.838-6.195 13.838-13.838v0-50.328c-0.008-7.636-6.2-13.824-13.838-13.824v0zM719.568 283.205c-7.642 0-13.838 6.195-13.838 13.838v0 50.314c0 7.642 6.195 13.838 13.838 13.838s13.838-6.195 13.838-13.838v0-50.314c0-7.642-6.195-13.838-13.838-13.838v0zM719.568 157.405c-7.642 0-13.838 6.195-13.838 13.838v0 50.314c0 7.642 6.195 13.838 13.838 13.838s13.838-6.195 13.838-13.838v0-50.314c0-7.642-6.195-13.838-13.838-13.838v0zM289.612 302.122c-7.641 0.002-13.835 6.196-13.835 13.838 0 3.82 1.548 7.279 4.052 9.783l256.443 256.581c2.52 2.606 6.048 4.225 9.953 4.225 7.642 0 13.838-6.195 13.838-13.838 0-3.906-1.618-7.434-4.221-9.95l-256.447-256.599c-2.503-2.497-5.957-4.041-9.772-4.041-0.004 0-0.008 0-0.011 0h0.001zM503.434 295.521c-35.3 0-63.917 28.617-63.917 63.917s28.617 63.917 63.917 63.917c35.3 0 63.917-28.617 63.917-63.917v0c-0.047-35.281-28.636-63.87-63.912-63.917h-0.005zM503.434 395.693c-20.016 0-36.241-16.226-36.241-36.241s16.226-36.241 36.241-36.241c20.011 0 36.233 16.218 36.241 36.227v0.001c-0.016 20.012-16.23 36.232-36.239 36.255h-0.002zM326.836 473.503c-35.3 0-63.917 28.617-63.917 63.917s28.617 63.917 63.917 63.917c35.296 0 63.909-28.609 63.917-63.902v-0.001c-0.039-35.287-28.631-63.884-63.912-63.931h-0.005zM326.836 573.675c-20.016 0-36.241-16.226-36.241-36.241s16.226-36.241 36.241-36.241c20.016 0 36.241 16.226 36.241 36.241v0c-0.024 20.006-16.235 36.218-36.239 36.241h-0.002z" />
<glyph unicode="&#xe91d;" glyph-name="comment" d="M512-64c282.302 0 512 229.677 512 512 0 48.729-6.802 96.75-20.271 142.74-6.635 22.615-30.25 35.604-52.927 28.969-22.635-6.615-35.583-30.312-28.969-52.927 11.156-38.208 16.833-78.188 16.833-118.781 0-235.26-191.406-426.667-426.667-426.667s-426.667 191.406-426.667 426.667 191.406 426.667 426.667 426.667c85.5 0 167.76-25 237.885-72.281 19.521-13.177 46.063-8 59.219 11.521 13.167 19.542 8.031 46.062-11.51 59.229-84.271 56.823-183.021 86.865-285.594 86.865-282.302 0-512-229.677-512-512s229.698-512 512-512zM951.167 862.167l-439.167-439.146-140.5 140.479c-16.667 16.656-43.667 16.656-60.333 0-16.656-16.667-16.656-43.667 0-60.333l170.667-170.667c8.344-8.344 19.24-12.5 30.167-12.5s21.823 4.156 30.167 12.5l469.333 469.333c16.656 16.667 16.656 43.667 0 60.333-16.667 16.656-43.667 16.656-60.333 0z" />
<glyph unicode="&#xe91e;" glyph-name="info" d="M904 958h-784c-66.172 0-120-53.828-120-120v-602c0-66.172 53.828-120 120-120h250.5l141.766-181.266 139.43 181.266h252.305c66.172 0 120 53.828 120 120v602c0 66.172-53.828 120-120 120zM944 236c0-22.055-17.945-40-40-40h-291.695l-100.57-130.734-102.234 130.734h-289.5c-22.055 0-40 17.945-40 40v602c0 22.055 17.945 40 40 40h784c22.055 0 40-17.945 40-40zM470.047 734c0 27.617 22.383 50 50 50 27.609 0 50-22.383 50-50s-22.391-50-50-50c-27.617 0-50 22.383-50 50zM574.461 379.273l35.078-71.898-27.18-13.258c-13.547-6.617-28.102-9.875-42.586-9.875-20.289 0-40.422 6.391-57.438 18.906-29.156 21.445-43.875 56.992-38.414 92.766 0.188 1.25 0.438 2.492 0.75 3.719l31.75 126.297c0.656 7.992-3.969 12.703-6.898 14.859-3.094 2.273-9.5 5.516-17.539 1.586-27.203-13.273-32.805-16-32.805-16l-35.031 71.922c0.016 0.008 5.641 2.75 32.75 15.977 32.539 15.875 70.859 12.406 100.023-9.039 29.156-21.438 43.875-56.984 38.422-92.758-0.195-1.25-0.445-2.492-0.75-3.719l-31.75-126.297c-0.656-7.992 3.969-12.703 6.891-14.859 3.102-2.281 9.5-5.516 17.547-1.586z" />
<glyph unicode="&#xe91f;" d="M267.335-63.75c-12.291-0.023-22.272 9.925-22.295 22.216-0.010 5.925 2.343 11.611 6.539 15.796l473.894 473.85-473.894 473.848c-8.702 8.702-8.702 22.81 0 31.513s22.81 8.702 31.513 0l489.607-489.607c8.688-8.69 8.688-22.777 0-31.469l-489.607-489.605c-4.173-4.187-9.844-6.543-15.756-6.543z" />
</font>
</defs>
</svg>
